<?xml version="1.0" standalone="no"?>
<!DOCTYPE svg PUBLIC "-//W3C//DTD SVG 1.1//EN" "http://www.w3.org/Graphics/SVG/1.1/DTD/svg11.dtd" >
<svg xmlns="http://www.w3.org/2000/svg">
<metadata>Generated by IcoMoon</metadata>
<defs>
<font id="Shoptimize" horiz-adv-x="1024">
<font-face units-per-em="1024" ascent="960" descent="-64" />
<missing-glyph horiz-adv-x="1024" />
<glyph unicode="&#x20;" horiz-adv-x="512" d="" />
<glyph unicode="&#xe900;" glyph-name="shop-compare" horiz-adv-x="1463" d="M512.731 301.714h-512.731v-146.286h512.731v-219.429l291.84 292.571-291.84 292.571v-219.429zM950.126 374.857v219.429h512.731v146.286h-512.731v219.429l-291.84-292.571 291.84-292.571z" />
<glyph unicode="&#xe901;" glyph-name="shop-angle-down" d="M962.878 685.346c-12.701 12.701-33.34 12.701-46.040 0l-404.837-405.631-405.631 405.631c-12.701 12.701-33.34 12.701-46.040 0s-12.701-33.34 0-46.040l427.857-427.857c6.35-6.35 14.288-9.526 23.020-9.526 7.938 0 16.67 3.175 23.020 9.526l427.857 427.857c13.495 12.701 13.495 33.34 0.794 46.040z" />
<glyph unicode="&#xe902;" glyph-name="shop-angle-right" d="M320.695-2.878c-6.35-6.35-14.288-9.526-23.020-9.526s-16.67 3.175-23.020 9.526c-12.701 12.701-12.701 33.34 0 46.040l404.837 404.837-404.837 404.837c-12.701 12.701-12.701 33.34 0 46.040s33.34 12.701 46.040 0l427.857-427.857c12.701-12.701 12.701-33.34 0-46.040l-427.857-427.857z" />
<glyph unicode="&#xe903;" glyph-name="shop-cart-1" d="M819.2-23.040c-45.243 0-81.92 36.677-81.92 81.92s36.677 81.92 81.92 81.92c45.243 0 81.92-36.677 81.92-81.92v0c0-45.243-36.677-81.92-81.92-81.92v0zM819.2 99.84c-22.622 0-40.96-18.338-40.96-40.96s18.338-40.96 40.96-40.96c22.622 0 40.96 18.338 40.96 40.96v0c0 22.622-18.338 40.96-40.96 40.96v0zM450.56-23.040c-45.243 0-81.92 36.677-81.92 81.92s36.677 81.92 81.92 81.92c45.243 0 81.92-36.677 81.92-81.92v0c0-45.243-36.677-81.92-81.92-81.92v0zM450.56 99.84c-22.622 0-40.96-18.338-40.96-40.96s18.338-40.96 40.96-40.96c22.622 0 40.96 18.338 40.96 40.96v0c0 22.622-18.338 40.96-40.96 40.96v0zM883.917 181.76h-491.52c-0.020 0-0.044 0-0.068 0-23.617 0-43.499 15.99-49.411 37.734l-0.083 0.359-151.962 609.894c-1.282 4.295-5.197 7.373-9.83 7.373v0h-181.043v40.96h181.043c0.020 0 0.044 0 0.068 0 23.617 0 43.499-15.99 49.411-37.734l0.083-0.359 31.539-125.747h710.246c0.571 0.023 1.241 0.036 1.915 0.036 28.277 0 51.2-22.923 51.2-51.2 0-4.376-0.549-8.624-1.582-12.678l0.077 0.354-90.112-428.032c-4.588-23.484-24.999-40.962-49.493-40.962-0.168 0-0.336 0.001-0.504 0.002h0.026zM271.974 673.28l110.592-443.187c1.282-4.295 5.197-7.373 9.83-7.373v0h491.52c4.738 0.053 8.699 3.315 9.815 7.712l0.015 0.071 89.293 428.851c0.659 1.315 1.045 2.865 1.045 4.506s-0.386 3.191-1.071 4.565l0.027-0.059c-1.694 2.934-4.672 4.962-8.146 5.321l-0.046 0.004z" />
<glyph unicode="&#xe906;" d="M512-64v0c282.77 0 512 229.23 512 512v0c0 282.77-229.23 512-512 512v0c-282.77 0-512-229.23-512-512v0c0-282.77 229.23-512 512-512z" />
<glyph unicode="&#xe907;" d="M256 587.914v-289.924c0-15.773 11.545-28.556 27.45-28.556h452.476c15.889 0 27.45 12.932 27.45 28.556v289.924c0 17.309-10.339 30.753-27.45 30.753h-452.476c-17.771 0-27.45-13.774-27.45-30.753zM297.72 562.66c0 6.986 4.228 10.983 10.983 10.983 4.179 0 168.597-104.184 178.556-110.295l25.732-16.004c8.159 5.467 16.351 10.141 24.807 15.806 17.259 11.033 170.826 110.493 175.054 110.493 6.772 0 10.983-3.997 10.983-10.983 0-7.399-14.253-14.749-23.535-20.414-58.318-35.543-116.62-74.29-174.361-111.154-3.369-2.279-9.893-7.151-14.782-6.408-5.45 0.842-172.759 108.329-203.198 126.233-4.575 2.692-10.24 5.153-10.24 11.743z" />
<glyph unicode="&#xe908;" glyph-name="shop-facebook" d="M512 960c-282.769 0-512-229.231-512-512s229.231-512 512-512c282.769 0 512 229.231 512 512s-229.231 512-512 512zM565.367 425.51v-278.556h-115.253v278.545h-57.581v95.991h57.581v57.632c0 78.31 32.512 124.877 124.887 124.877h76.905v-96.002h-48.070c-35.959 0-38.338-13.414-38.338-38.451l-0.13-48.045h87.083l-10.191-95.991h-76.892z" />
<glyph unicode="&#xe909;" glyph-name="shop-filter" d="M536 653.76v114.24c0 13.255-10.745 24-24 24s-24-10.745-24-24v0-114.24c-41.996-11.324-72.395-49.072-72.395-93.92s30.398-82.596 71.715-93.763l0.68-0.157v-337.92c0-13.255 10.745-24 24-24s24 10.745 24 24v0 337.92c96.32 24.64 96.32 163.36 0 187.84zM512 510.88c-25.895 1.525-46.318 22.898-46.318 49.040s20.423 47.515 46.184 49.034l0.134 0.006c25.895-1.525 46.318-22.898 46.318-49.040s-20.423-47.515-46.184-49.034l-0.134-0.006zM856 448c-0.070 44.993-30.725 82.807-72.283 93.768l-0.677 0.152v226.080c0 13.255-10.745 24-24 24s-24-10.745-24-24v0-226.080c-41.996-11.324-72.395-49.072-72.395-93.92s30.398-82.596 71.715-93.763l0.68-0.157v-226.080c0-13.255 10.745-24 24-24s24 10.745 24 24v0 226.080c42.235 11.113 72.89 48.927 72.96 93.912v0.008zM760 399.040c-27.040 0-48.96 21.92-48.96 48.96s21.92 48.96 48.96 48.96v0c26.902-0.181 48.641-22.032 48.641-48.96 0-27.040-21.921-48.961-48.961-48.961-0.113 0-0.225 0-0.337 0.001h0.017zM288.96 368v400c0 13.255-10.745 24-24 24s-24-10.745-24-24v0-400c-41.843-11.429-72.093-49.102-72.093-93.84s30.25-82.411 71.412-93.681l0.681-0.159v-52.32c0-13.255 10.745-24 24-24s24 10.745 24 24v0 52.16c41.996 11.324 72.395 49.072 72.395 93.92s-30.398 82.596-71.715 93.763l-0.68 0.157zM264.96 224.96c-25.895 1.525-46.318 22.898-46.318 49.040s20.423 47.515 46.184 49.034l0.134 0.006c25.895-1.525 46.318-22.898 46.318-49.040s-20.423-47.515-46.184-49.034l-0.134-0.006z" />
<glyph unicode="&#xe90a;" glyph-name="shop-gmail" d="M512 960c-282.769 0-512-229.231-512-512s229.231-512 512-512c282.769 0 512 229.231 512 512s-229.231 512-512 512zM511.23 404.922l-191.258 138.833v-292.661h-31.953c-17.803 0-31.953 14.15-31.953 31.953v323.631c0 1.355 0.083 2.626 0.241 3.817 0.58 5.077 2.432 10.046 5.694 14.443 10.498 14.15 31.040 17.346 45.647 6.848l204.038-148.352 205.408 150.176c14.15 10.5 34.236 7.305 44.734-7.302 5.581-7.522 7.292-16.719 5.476-25.263v-318.453c0-17.346-14.15-31.497-31.951-31.497h-31.953v293.359l-192.171-139.531z" />
<glyph unicode="&#xe90b;" glyph-name="shop-gooleplus" d="M0 448c0 282.769 229.231 512 512 512s512-229.231 512-512c0-282.769-229.231-512-512-512s-512 229.231-512 512zM511.262 584.079c41.6 0 69.664-17.997 85.664-33.035l62.526 61.137c-38.402 35.746-88.373 57.685-148.19 57.685-86.65 0-161.483-49.796-197.916-122.274-15.017-30.074-23.631-63.846-23.631-99.593s8.614-69.519 23.631-99.593l71.881 55.712-71.635-55.712c36.433-72.478 111.021-122.274 197.67-122.274 59.817 0 110.033 19.721 146.711 53.741 41.847 38.703 65.973 95.65 65.973 163.196 0 18.242-1.478 31.554-4.678 45.359h-208.006v-82.336h122.097c-2.462-20.463-15.755-51.277-45.295-71.985-18.709-13.065-43.817-22.187-76.802-22.187-58.588 0-108.311 38.705-126.035 92.198-4.678 13.805-7.386 28.597-7.386 43.881s2.707 30.076 7.138 43.881c17.971 53.493 67.695 92.198 126.283 92.198z" />
<glyph unicode="&#xe90c;" glyph-name="shop-heart" d="M927.355 429.261c101.356 102.482 101.356 269.23 0 371.712-49.152 49.725-114.545 77.107-184.095 77.107-0.020 0-0.020 0-0.020 0-69.55 0-134.963-27.382-184.136-77.107l-47.104-47.616-47.104 47.616c-49.172 49.725-114.565 77.107-184.136 77.107-69.55 0-134.943-27.382-184.115-77.107-101.356-102.482-101.356-269.23 0-371.712l415.355-419.983 415.355 419.983zM125.768 772.178c41.411 41.882 96.481 64.942 154.993 64.942 58.532 0 113.603-23.060 155.013-64.942l76.227-77.087 76.227 77.087c41.411 41.882 96.481 64.942 155.013 64.942s113.582-23.060 154.993-64.942c85.668-86.61 85.668-227.512 0-314.122l-386.232-390.533-386.232 390.533c-85.668 86.61-85.668 227.533 0 314.122z" />
<glyph unicode="&#xe90d;" glyph-name="shop-instagram" d="M512 960c-282.769 0-512-229.231-512-512s229.231-512 512-512c282.769 0 512 229.231 512 512s-229.231 512-512 512zM399.43 719.418c29.126 1.325 38.434 1.649 112.595 1.649h-0.085c74.185 0 83.456-0.324 112.585-1.649 29.071-1.331 48.924-5.935 66.334-12.687 17.975-6.97 33.165-16.299 48.354-31.488 15.191-15.179 24.521-30.413 31.518-48.373 6.714-17.363 11.322-37.205 12.687-66.276 1.308-29.129 1.649-38.434 1.649-112.595s-0.341-83.445-1.649-112.574c-1.365-29.058-5.973-48.907-12.687-66.276-6.997-17.954-16.326-33.188-31.518-48.367-15.172-15.189-30.383-24.542-48.337-31.518-17.376-6.752-37.242-11.354-66.31-12.685-29.129-1.327-38.406-1.651-112.574-1.651-74.155 0-83.456 0.324-112.585 1.651-29.065 1.331-48.913 5.933-66.287 12.685-17.95 6.976-33.184 16.329-48.356 31.518-15.185 15.179-24.514 30.413-31.494 48.373-6.748 17.363-11.349 37.205-12.687 66.276-1.318 29.126-1.649 38.406-1.649 112.567s0.341 83.473 1.645 112.602c1.308 29.058 5.916 48.907 12.685 66.276 6.997 17.954 16.329 33.188 31.518 48.367 15.179 15.183 30.413 24.514 48.373 31.488 17.363 6.752 37.205 11.356 66.276 12.687zM487.531 671.857v0.068c-50.893-0.058-60.657-0.399-85.847-1.536-26.624-1.225-41.079-5.662-50.705-9.417-12.742-4.96-21.845-10.878-31.403-20.435s-15.486-18.658-20.435-31.403c-3.738-9.626-8.186-24.075-9.404-50.699-1.308-28.787-1.57-37.389-1.57-110.308 0-72.922 0.262-81.57 1.57-110.355 1.212-26.624 5.666-41.075 9.404-50.688 4.962-12.749 10.878-21.828 20.435-31.386s18.66-15.475 31.403-20.425c9.632-3.738 24.081-8.186 50.705-9.414 28.787-1.31 37.429-1.594 110.345-1.594 72.909 0 81.555 0.284 110.342 1.594 26.624 1.216 41.086 5.653 50.699 9.408 12.749 4.949 21.824 10.867 31.381 20.425 9.557 9.551 15.486 18.626 20.435 31.369 3.738 9.615 8.186 24.064 9.404 50.688 1.308 28.787 1.591 37.434 1.591 110.31s-0.284 81.521-1.591 110.308c-1.212 26.624-5.666 41.073-9.404 50.688-4.962 12.742-10.878 21.845-20.435 31.403-9.553 9.557-18.637 15.475-31.381 20.425-9.626 3.738-24.075 8.186-50.699 9.404-28.791 1.308-37.434 1.57-110.342 1.57l-9.103 0.002c-5.521 0.002-10.639 0.004-15.394-0.002zM657.79 626.515v0.011c18.091 0 32.768-14.677 32.768-32.768s-14.677-32.768-32.768-32.768c-18.091 0-32.77 14.677-32.77 32.768 0 18.097 14.679 32.757 32.77 32.757zM371.795 447.996c0 77.442 62.784 140.23 140.226 140.233 77.444 0 140.215-62.788 140.215-140.233s-62.767-140.205-140.209-140.205c-77.444 0-140.233 62.761-140.233 140.205zM512.026 539.021c50.268 0 91.023-40.751 91.023-91.023 0-50.268-40.755-91.023-91.023-91.023-50.272 0-91.023 40.755-91.023 91.023 0 50.272 40.751 91.023 91.023 91.023z" />
<glyph unicode="&#xe90e;" glyph-name="shop-interest" d="M505.651 960c-280.422 0-505.651-227.062-505.651-509.883 0-209.922 123.238-385.562 301.722-466.98 0 95.616-0.666 83.277 72.192 394.184-40.038 80.799-8.909 214.207 80.742 214.207 124.416 0 39.885-184.469 25.498-257.058-12.749-55.708 29.747-98.559 80.742-98.559 97.741 0 161.434 124.27 161.434 269.914 0 111.415-76.442 192.833-208.179 192.833-234.24 0-293.632-260.879-212.429-342.761 20.429-30.925 0-32.371 0-72.848-14.182-42.8-127.488 19.412-127.488 179.926 0 145.696 118.989 317.050 361.165 317.050 191.181 0 318.669-141.359 318.669-291.339 0-201.352-110.49-347.047-271.923-347.047-55.245 0-106.24 29.996-123.238 64.278-30.874-120.088-37.12-180.958-84.992-248.488 46.746-12.855 93.491-21.426 144.486-21.426 280.422 0 505.6 227.062 505.6 509.832-12.698 287.106-237.926 514.168-518.349 514.168z" />
<glyph unicode="&#xe90f;" glyph-name="shop-linkedin" d="M512 960c-282.769 0-512-229.231-512-512s229.231-512 512-512c282.769 0 512 229.231 512 512s-229.231 512-512 512zM245.794 535.94h116.030v-348.625h-116.030v348.625zM369.468 643.782c0-33.474-25.197-60.258-65.655-60.258h-0.742c-38.953 0-64.137 26.784-64.137 60.258 0 34.182 25.95 60.218 65.643 60.218 39.695 0 64.139-26.035 64.892-60.218zM646.679 544.126c76.354 0 133.596-49.839 133.596-156.919l-0.004-199.891h-116.026v186.515c0 46.848-16.791 78.816-58.795 78.816-32.055 0-51.149-21.551-59.535-42.368-3.068-7.458-3.821-17.852-3.821-28.271v-194.701h-116.045c0 0 1.53 315.91 0 348.623h116.045v-49.378c15.398 23.738 42.98 57.574 104.585 57.574z" />
<glyph unicode="&#xe910;" glyph-name="shop-netflix" d="M512 960c-282.769 0-512-229.231-512-512s229.231-512 512-512c282.769 0 512 229.231 512 512s-229.231 512-512 512zM451.251 491.776v-338.803c-30.797-3.878-61.517-7.949-92.237-12.173h-0.614v614.4h96.845l123.571-350.899v350.899h92.89v-577.344c-35.366-3.533-70.656-7.219-105.869-11.213l-114.586 325.133z" />
<glyph unicode="&#xe911;" glyph-name="shop-notification" d="M512-64c56.32 0 102.4 46.080 102.4 102.4h-204.8c0-56.32 45.568-102.4 102.4-102.4zM819.2 243.2v256c0 157.184-83.968 288.768-230.4 323.584v34.816c0 42.496-34.304 76.8-76.8 76.8s-76.8-34.304-76.8-76.8v-34.816c-146.944-34.816-230.4-165.888-230.4-323.584v-256l-66.048-66.048c-32.256-32.256-9.728-87.552 35.84-87.552h674.304c45.568 0 68.608 55.296 36.352 87.552l-66.048 66.048z" />
<glyph unicode="&#xe912;" glyph-name="shop-pinterest-1" d="M0.010 450.242c0-277.882 228.8-503.215 511.147-503.215 282.293 0 511.149 225.333 511.149 503.215s-228.855 503.162-511.149 503.162c-282.347 0-511.147-225.28-511.147-503.162zM341.696 25.6c-172.299 66.453-294.392 231.477-294.392 424.638 0 251.904 207.393 456.003 463.241 456.003s463.243-204.099 463.243-456.003c0-251.851-207.394-456.004-463.243-456.004-47.797 0-93.841 7.115-137.15 20.373 18.835 30.287 47.087 79.925 57.542 119.537 5.641 21.342 28.853 108.382 28.853 108.382 15.113-28.348 59.241-52.384 106.217-52.384 139.667 0 240.352 126.49 240.352 283.648 0 150.635-124.883 263.383-285.577 263.383-199.893 0-306.052-132.151-306.052-275.996 0-66.829 36.134-150.15 93.95-176.668 8.815-3.987 13.523-2.208 15.55 6.144 0.621 2.554 2.274 9.154 4.254 17.060 2.91 11.62 6.528 26.063 8.612 34.626 1.094 4.634 0.548 8.57-3.23 13.097-19.164 22.85-34.438 64.89-34.438 104.070 0 100.567 77.363 197.901 209.146 197.901 113.826 0 193.487-76.314 193.487-185.506 0-123.364-63.29-208.841-145.634-208.841-45.444 0-79.499 36.971-68.604 82.404 4.727 19.588 11.049 39.731 17.195 59.317 10.867 34.628 21.186 67.514 21.186 92.503 0 35.031-19.108 64.243-58.583 64.243-46.537 0-83.821-47.319-83.821-110.754 0-40.367 13.852-67.691 13.852-67.691s-45.937-191.057-54.313-226.628c-9.308-39.452-5.694-94.801-1.643-130.857z" />
<glyph unicode="&#xe913;" glyph-name="shop-right-arrow" d="M1024 447.712c0 8.544-3.52 16.704-9.376 22.848l-316.768 319.968c-12.512 12.64-32.768 12.608-45.248 0-12.512-12.608-12.512-33.088 0-45.696l262.176-264.8h-882.784c-17.664 0-32-14.464-32-32.32s14.336-32.32 32-32.32h882.752l-262.144-264.8c-12.512-12.608-12.48-33.088 0-45.696 12.512-12.608 32.768-12.608 45.248 0l316.768 319.968c5.984 6.048 9.28 14.368 9.376 22.848z" />
<glyph unicode="&#xe914;" glyph-name="shop-small-down-arrow" d="M777.12 598.912l-265.12-265.184-265.12 265.216c-12.64 12.64-33.088 12.64-45.728 0-12.608-12.64-12.608-33.12 0-45.76l287.968-288.064c12.608-12.64 33.088-12.64 45.696 0l287.968 288.064c12.608 12.64 12.608 33.152 0 45.792-12.576 12.576-33.056 12.576-45.664-0.064z" />
<glyph unicode="&#xe915;" glyph-name="shop-small-left-arrow" d="M360.384 425.152l288.064-287.968c12.64-12.608 33.12-12.608 45.792 0 12.64 12.608 12.64 33.088 0 45.696l-265.216 265.12 265.184 265.12c12.64 12.608 12.64 33.088 0 45.728-12.64 12.608-33.152 12.608-45.792 0l-288.064-287.968c-12.448-12.48-12.448-33.28 0.032-45.728z" />
<glyph unicode="&#xe916;" glyph-name="shop-small-right-arrow" d="M694.336 470.848l-288.064 287.968c-12.64 12.608-33.12 12.608-45.792 0-12.64-12.608-12.64-33.088 0-45.696l265.216-265.12-265.184-265.12c-12.64-12.608-12.64-33.088 0-45.728 12.64-12.608 33.152-12.608 45.792 0l288.064 287.968c12.448 12.48 12.448 33.28-0.032 45.728z" />
<glyph unicode="&#xe917;" glyph-name="shop-small-up-arrow" d="M534.848 598.496c-12.448 12.448-33.248 12.448-45.728 0l-287.968-287.232c-12.608-12.608-12.608-33.056 0-45.632 12.608-12.608 33.088-12.608 45.696 0l265.152 264.416 265.12-264.448c12.64-12.608 33.088-12.608 45.728 0 12.608 12.608 12.608 33.056 0 45.632l-288 287.264z" />
<glyph unicode="&#xe918;" glyph-name="shop-telegram" d="M0 448c0-282.769 229.231-512 512-512s512 229.231 512 512c0 282.769-229.231 512-512 512s-512-229.231-512-512zM418.133 213.333l8.71 130.511-0.006 0.006 237.417 214.251c10.419 9.248-2.274 13.758-16.107 5.37l-293.005-184.853-126.562 39.501c-27.332 8.369-27.529 27.151 6.135 40.653l493.184 190.17c22.526 10.227 44.267-5.41 35.667-39.885l-83.989-395.789c-5.865-28.126-22.859-34.852-46.404-21.86l-127.942 94.526-61.498-59.799c-0.194-0.188-0.386-0.375-0.578-0.563-6.878-6.697-12.57-12.237-25.022-12.237z" />
<glyph unicode="&#xe919;" glyph-name="shop-twitter" d="M512 960c-282.769 0-512-229.231-512-512s229.231-512 512-512c282.769 0 512 229.231 512 512s-229.231 512-512 512zM497.741 526.123l-1.075 17.717c-3.223 45.918 25.069 87.859 69.837 104.128 16.474 5.786 44.407 6.509 62.673 1.446 7.162-2.17 20.772-9.399 30.441-15.908l17.549-11.932 19.339 6.146c10.746 3.255 25.071 8.678 31.516 12.294 6.089 3.253 11.46 5.062 11.46 3.977 0-6.146-13.25-27.117-24.352-38.686-15.042-16.271-10.743-17.717 19.697-6.869 18.266 6.146 18.622 6.146 15.042-0.723-2.15-3.616-13.252-16.271-25.071-27.84-20.055-19.887-21.129-22.057-21.129-38.688 0-25.67-12.177-79.181-24.354-108.467-22.562-54.957-70.91-111.721-119.258-140.284-68.045-40.134-158.654-50.257-234.935-26.756-25.427 7.955-69.12 28.203-69.12 31.817 0 1.086 13.25 2.532 29.367 2.893 33.664 0.723 67.328 10.125 95.979 26.756l19.341 11.569-22.206 7.593c-31.516 10.848-59.808 35.795-66.97 59.296-2.15 7.593-1.434 7.955 18.622 7.955l20.772 0.361-17.549 8.316c-20.772 10.485-39.753 28.203-49.065 46.281-6.805 13.015-15.398 45.918-12.892 48.448 0.715 1.084 8.237-1.084 16.832-3.977 24.71-9.039 27.934-6.869 13.609 8.316-26.861 27.477-35.098 68.335-22.204 107.021l6.089 17.355 23.635-23.501c48.35-47.364 105.293-75.567 170.473-83.883l17.907-2.17z" />
<glyph unicode="&#xe91a;" glyph-name="shop-user" d="M659.923 431.442c65.737 46.958 108.080 123.004 108.080 208.939 0 141.385-114.615 256-256 256s-256-114.615-256-256c0-85.935 42.343-161.981 107.303-208.412l0.777-0.528c-174.628-52.077-299.814-211.104-300.083-399.411v-0.031c0-17.673 14.327-32 32-32v0h832c17.673 0 32 14.327 32 32v0c-0.268 188.336-125.452 347.362-297.127 398.685l-2.949 0.757zM320 640c0 106.039 85.961 192 192 192s192-85.961 192-192c0-106.039-85.961-192-192-192v0c-105.988 0.125-191.875 86.012-192 191.988v0.012zM129.44 64c17.15 180.044 167.502 319.78 350.537 320h64.023c183.058-0.22 333.41-139.956 350.45-318.579l0.11-1.421z" />
<glyph unicode="&#xe91b;" glyph-name="shop-whatsapp" d="M0 448c0-282.769 229.231-512 512-512s512 229.231 512 512c0 282.769-229.231 512-512 512s-512-229.231-512-512zM833.325 467.595c-0.066-167.825-136.589-304.38-304.448-304.448h-0.126c-50.955 0.017-101.022 12.802-145.491 37.056l-161.393-42.336 43.191 157.764c-26.643 46.172-40.661 98.545-40.64 152.205 0.068 167.861 136.644 304.431 304.454 304.431 81.444-0.035 157.886-31.742 215.366-89.289 57.481-57.545 89.12-134.035 89.086-215.383zM294.965 230.195l95.774 25.124 9.239-5.485c38.852-23.055 83.388-35.253 128.796-35.273h0.102c139.473 0 252.988 113.519 253.045 253.050 0.026 67.616-26.27 131.191-74.046 179.023s-111.311 74.187-178.899 74.21c-139.582 0-253.099-113.508-253.154-253.028-0.019-47.814 13.359-94.379 38.69-134.667l6.016-9.574-25.564-93.38zM671.838 402.046c5.306-2.564 8.89-4.294 10.419-6.848 1.901-3.172 1.901-18.404-4.435-36.177-6.342-17.769-36.732-33.986-51.349-36.169-13.105-1.961-29.69-2.778-47.913 3.014-11.051 3.505-25.218 8.186-43.369 16.023-71.315 30.795-119.511 99.915-128.619 112.979-0.638 0.915-1.086 1.555-1.333 1.886l-0.062 0.083c-4.026 5.372-31.002 41.363-31.002 78.611 0 35.040 17.214 53.408 25.137 61.862 0.542 0.578 1.041 1.111 1.489 1.6 6.972 7.616 15.215 9.519 20.286 9.519s10.146-0.047 14.579-0.269c0.546-0.028 1.116-0.023 1.705-0.021 4.433 0.028 9.958 0.060 15.411-13.037 2.097-5.041 5.167-12.512 8.403-20.39 6.545-15.938 13.779-33.547 15.051-36.094 1.903-3.808 3.17-8.25 0.634-13.329-0.38-0.762-0.732-1.481-1.069-2.165-1.903-3.889-3.305-6.75-6.537-10.524-1.271-1.485-2.586-3.085-3.9-4.683-2.615-3.187-5.233-6.374-7.511-8.644-3.808-3.793-7.774-7.91-3.337-15.526s19.706-32.525 42.321-52.698c24.309-21.683 45.438-30.848 56.147-35.494 2.091-0.907 3.785-1.641 5.028-2.263 7.603-3.808 12.043-3.172 16.48 1.905 4.437 5.075 19.017 22.212 24.087 29.828 5.069 7.612 10.144 6.345 17.116 3.806 6.974-2.541 44.373-20.941 51.981-24.749 1.485-0.745 2.874-1.414 4.16-2.037z" />
<glyph unicode="&#xe91c;" glyph-name="shop-wishlist" d="M941.29 814.55c-53.62 53.62-124.608 82.927-200.371 82.927s-146.968-29.524-200.588-83.144l-28.004-28.004-28.438 28.438c-53.62 53.62-125.042 83.361-200.805 83.361-75.546 0-146.751-29.524-200.154-82.927-53.62-53.62-83.144-124.825-82.927-200.588 0-75.763 29.741-146.751 83.361-200.371l407.689-407.689c5.644-5.644 13.242-8.683 20.623-8.683s14.979 2.822 20.623 8.466l408.557 407.038c53.62 53.62 83.144 124.825 83.144 200.588 0.217 75.763-29.090 146.968-82.71 200.588zM899.609 454.837l-387.934-386.414-387.066 387.066c-42.549 42.549-65.994 98.992-65.994 159.125s23.228 116.576 65.777 158.907c42.332 42.332 98.774 65.777 158.69 65.777 60.133 0 116.793-23.445 159.342-65.994l49.062-49.062c11.506-11.506 29.958-11.506 41.464 0l48.627 48.627c42.549 42.549 99.209 65.994 159.125 65.994s116.358-23.445 158.907-65.777c42.549-42.549 65.777-98.992 65.777-159.125 0.217-60.133-23.228-116.576-65.777-159.125z" />
<glyph unicode="&#xe91d;" glyph-name="shop-youtube" d="M512 960c-282.769 0-512-229.231-512-512s229.231-512 512-512c282.769 0 512 229.231 512 512s-229.231 512-512 512zM725.367 624.015c23.499-6.449 42.005-25.449 48.286-49.577 11.413-43.729 11.413-134.972 11.413-134.972s0-91.238-11.413-134.972c-6.281-24.128-24.787-43.127-48.286-49.579-42.586-11.716-213.367-11.716-213.367-11.716s-170.782 0-213.37 11.716c-23.501 6.451-42.007 25.451-48.288 49.579-11.409 43.733-11.409 134.972-11.409 134.972s0 91.243 11.409 134.972c6.281 24.128 24.787 43.127 48.288 49.577 42.588 11.718 213.37 11.718 213.37 11.718s170.782 0 213.367-11.718zM460.8 345.6v170.667l136.533-85.335-136.533-85.331z" />
<glyph unicode="&#xe91e;" glyph-name="shop-zoom" d="M512-64c-282.769 0-512 229.231-512 512s229.231 512 512 512c282.769 0 512-229.231 512-512s-229.231-512-512-512zM178.087 608.271v-240.414c0-54.093 44.296-97.943 98.89-97.943h350.62c9.924 0 17.969 7.981 17.969 17.815v240.414c0 54.093-44.297 97.943-98.891 97.943h-350.62c-9.923 0-17.968-7.981-17.968-17.815zM667.825 381.12l144.698-105.572c10.238-7.821 22.259-10.24 22.259 11.113v322.272c0 19.040-9.647 21.431-22.259 11.115l-144.698-105.572v-133.355z" />
<glyph unicode="&#xe91f;" glyph-name="shop-heart1" d="M940.259 834.32c-52.965 56.93-127.184 89.323-204.942 89.443-77.821-0.090-152.116-32.465-205.163-89.407l-18.079-19.104-18.079 19.104c-105.26 113.288-282.43 119.794-395.716 14.534-5.020-4.666-9.868-9.512-14.534-14.534-111.661-120.44-111.661-306.573 0-427.013l401.761-423.683c13.9-14.674 37.063-15.302 51.737-1.402 0.48 0.455 0.948 0.922 1.402 1.402l401.615 423.683c111.652 120.427 111.652 306.55-0.002 426.977zM887.304 457.737h-0.036l-375.193-395.723-375.227 395.723c-85.302 92.027-85.302 234.234 0 326.261 77.465 83.96 208.328 89.224 292.288 11.76 4.076-3.761 7.998-7.683 11.76-11.76l44.611-47.064c14.702-14.607 38.437-14.607 53.139 0l44.611 47.028c77.465 83.96 208.328 89.224 292.288 11.76 4.076-3.761 7.998-7.683 11.76-11.76 86.044-92.173 86.675-234.639 0-326.224z" />
<glyph unicode="&#xe920;" glyph-name="shop-search-1" d="M409.6 192.397c87.318 0 166.698 30.958 228.614 83.349l277.829-277.829c6.35-6.35 14.288-9.526 23.020-9.526s16.67 3.175 23.020 9.526c12.701 12.701 12.701 33.34 0 46.040l-277.829 277.829c51.597 61.916 83.349 142.090 83.349 228.614 0 197.656-160.347 358.003-358.003 358.003-196.862 0-358.003-161.141-358.003-358.003 0-197.656 161.141-358.003 358.003-358.003zM409.6 843.312c161.935 0 292.912-131.771 292.912-292.912 0-161.935-130.977-292.912-292.912-292.912s-292.912 131.771-292.912 292.912c0 161.141 131.771 292.912 292.912 292.912z" />
<glyph unicode="&#xe921;" glyph-name="shop-menu" d="M981.333 406.219h-938.667c-23.552 0-42.667 19.115-42.667 42.667s19.115 42.667 42.667 42.667h938.667c23.552 0 42.667-19.115 42.667-42.667s-19.115-42.667-42.667-42.667zM981.333 733.333h-938.667c-23.552 0-42.667 19.115-42.667 42.667s19.115 42.667 42.667 42.667h938.667c23.552 0 42.667-19.115 42.667-42.667s-19.115-42.667-42.667-42.667zM981.333 79.115h-938.667c-23.552 0-42.667 19.115-42.667 42.667s19.115 42.667 42.667 42.667h938.667c23.552 0 42.667-19.115 42.667-42.667s-19.115-42.667-42.667-42.667z" />
<glyph unicode="&#xe922;" glyph-name="shop-pen" d="M881.504 889.686c-51.612 51.521-135.19 51.521-186.802 0l-46.76-47.017-498.818-498.562c-0.256-0.256-0.256-0.529-0.529-0.529-0.529-0.793-1.322-1.579-1.843-2.372 0-0.264-0.273-0.264-0.273-0.529-0.529-0.793-0.785-1.322-1.322-2.116-0.256-0.264-0.256-0.521-0.521-0.793-0.264-0.793-0.529-1.322-0.802-2.116 0-0.256-0.256-0.256-0.256-0.529l-110.438-332.099c-3.24-9.455-0.777-19.926 6.339-26.942 5-4.934 11.744-7.694 18.76-7.669 2.868 0.050 5.711 0.496 8.455 1.322l331.843 110.702c0.256 0 0.256 0 0.529 0.256 0.835 0.248 1.636 0.603 2.372 1.066 0.207 0.025 0.388 0.116 0.537 0.256 0.785 0.529 1.843 1.066 2.636 1.595 0.785 0.521 1.587 1.314 2.38 1.843 0.264 0.273 0.521 0.273 0.521 0.529 0.273 0.264 0.802 0.521 1.066 1.058l544.52 544.52c51.521 51.612 51.521 135.19 0 186.793zM390.082 142.529l-183.884 183.876 460.239 460.239 183.884-183.876zM180.297 277.529l160.645-160.636-241.223-80.314zM915.851 668.554l-28.008-28.273-183.892 183.892 28.281 28.264c30.934 30.909 81.074 30.909 112.016 0l71.859-71.859c30.702-31.074 30.587-81.099-0.256-112.025z" />
<glyph unicode="&#xe923;" glyph-name="shop-phone" d="M735.946-64c-33.055 0-65.829 5.844-97.878 17.487-141.19 51.29-272.245 134.826-379 241.58s-190.292 237.81-241.58 379c-16.481 45.374-21.345 92.212-14.451 139.218 6.458 44.030 23.513 86.774 49.324 123.613 25.925 37 60.488 67.775 99.95 88.996 42.082 22.629 88.014 34.105 136.524 34.105 15.087 0 28.127-10.542 31.289-25.293l50.226-234.388c2.274-10.614-0.988-21.657-8.662-29.333l-85.822-85.82c80.961-160.965 212.331-292.336 373.297-373.297l85.82 85.822c7.676 7.674 18.721 10.932 29.333 8.662l234.388-50.226c14.753-3.162 25.293-16.201 25.293-31.289 0-48.51-11.476-94.444-34.107-136.526-21.221-39.462-51.996-74.025-88.996-99.95-36.836-25.811-79.581-42.866-123.613-49.324-13.797-2.026-27.593-3.036-41.334-3.038zM263.267 894.603c-63.987-7.064-120.781-40.602-158.495-94.43-42.41-60.528-52.3-134.974-27.133-204.256 98.604-271.441 310.837-483.674 582.278-582.278 69.279-25.167 143.726-15.279 204.256 27.133 53.828 37.714 87.366 94.508 94.43 158.495l-190.674 40.858-89.628-89.628c-9.538-9.538-24.029-12.072-36.233-6.336-190.372 89.436-344.47 243.534-433.906 433.906-5.734 12.205-3.202 26.697 6.336 36.233l89.628 89.628z" />
<glyph unicode="&#xe924;" glyph-name="shop-remove" d="M981.332 490.668h-938.665c-23.565 0-42.668-19.103-42.668-42.668s19.102-42.668 42.668-42.668h938.668c23.565 0 42.668 19.102 42.668 42.668s-19.105 42.668-42.67 42.668z" />
<glyph unicode="&#xe925;" glyph-name="shop-search" d="M451.547 958.768c-248.98 0-451.547-202.012-451.547-450.315s202.568-450.315 451.547-450.315 451.549 202.012 451.549 450.315-202.568 450.315-451.549 450.315zM451.547 132.164c-208.168 0-377.523 168.812-377.523 376.291 0 207.49 169.354 376.291 377.523 376.291s377.523-168.8 377.523-376.291c0.002-207.478-169.352-376.291-377.523-376.291zM1013.096 0.486l-243.046 241.812c-14.496 14.41-37.926 14.348-52.348-0.136-14.41-14.496-14.348-37.924 0.136-52.348l243.046-241.812c7.23-7.18 16.656-10.77 26.106-10.77 9.512 0 19.012 3.64 26.242 10.906 14.41 14.498 14.348 37.926-0.136 52.348z" />
<glyph unicode="&#xe926;" glyph-name="shop-sent-email" d="M48.426 928.162l370.685-978.651c3.043-8.093 10.903-13.511 19.564-13.511l1.772 0.067c9.264 0.769 16.956 7.692 18.728 16.855l87.856 451.652 414.362 80.030c8.896 1.739 15.618 8.896 16.755 17.792 1.171 8.929-3.478 17.558-11.571 21.504l-890.829 434.027c-7.592 3.746-17.090 2.308-23.243-3.311-6.287-5.685-8.495-14.815-5.451-22.808l1.271-3.378-0.1-0.067 0.201-0.201zM891.999 513.766l-355.134-68.592-383.595 428.442 738.729-359.85zM506.766 416.145l-74.545-383.126-306.307 808.558 380.852-425.432z" />
<glyph unicode="&#xe927;" glyph-name="shop-settings" d="M993.318 335.744l-94.122 73.6c1.238 11.35 2.218 24.618 2.218 38.656s-1.024 27.306-2.218 38.656l94.208 73.642c17.494 13.824 22.314 38.358 11.136 58.794l-97.878 169.344c-10.71 19.498-34.73 28.416-56.618 20.352l-111.062-44.586c-21.248 15.36-43.562 28.33-66.646 38.698l-16.896 117.802c-2.772 22.402-22.228 39.298-45.226 39.298h-196.266c-22.998 0-42.454-16.896-45.184-38.87l-16.938-118.23c-22.358-10.112-44.33-22.87-66.56-38.742l-111.36 44.714c-21.29 8.32-45.526-0.47-56.192-20.010l-98.006-169.6c-11.562-19.542-6.826-44.886 11.094-59.050l94.122-73.558c-1.494-14.422-2.218-26.922-2.218-38.656s0.726-24.234 2.134-38.656l-94.208-73.686c-17.452-13.822-22.232-38.354-11.096-58.792l97.878-169.344c10.624-19.456 34.602-28.33 56.618-20.352l111.062 44.586c21.248-15.318 43.606-28.288 66.688-38.698l16.896-117.76c2.774-22.4 22.23-39.296 45.226-39.296h196.266c22.998 0 42.454 16.896 45.184 38.87l16.938 118.186c22.358 10.112 44.33 22.87 66.56 38.742l111.36-44.714c21.206-8.234 45.526 0.47 56.192 20.010l98.39 170.198c10.882 19.966 6.102 44.5-11.476 58.452zM967.504 298.198l-101.632-171.434-122.154 49.066c-6.912 2.774-14.762 1.706-20.736-2.73-26.454-19.798-52.010-34.688-78.208-45.398-6.998-2.858-11.99-9.216-13.056-16.726l-21.546-132.31-199.126 2.262-18.646 130.006c-1.11 7.51-6.058 13.866-13.056 16.726-27.264 11.178-53.504 26.41-78.038 45.27-3.798 2.944-8.406 4.438-13.014 4.438-2.688 0-5.376-0.47-7.978-1.536l-125.654-47.402-97.878 169.344c-0.896 1.664-0.726 3.584 0.298 4.394l103.552 80.938c5.888 4.608 8.96 12.032 8.022 19.456-2.262 17.878-3.286 32.342-3.286 45.44s1.066 27.52 3.286 45.44c0.938 7.466-2.134 14.848-8.022 19.456l-104.060 84.862 101.632 171.434 122.154-49.066c6.954-2.816 14.762-1.75 20.778 2.73 26.41 19.84 52.010 34.688 78.208 45.398 6.998 2.902 11.946 9.258 13.014 16.726l21.59 132.352 199.168-2.304 18.602-130.048c1.11-7.51 6.058-13.866 13.056-16.726 27.222-11.136 53.462-26.368 78.038-45.27 6.016-4.608 13.91-5.718 20.95-2.858l125.654 47.402 97.878-169.344c0.896-1.664 0.726-3.542-0.298-4.352l-103.552-80.938c-5.888-4.608-8.96-11.99-8.022-19.456 1.622-12.97 3.286-28.544 3.286-45.44 0-16.938-1.664-32.47-3.286-45.44-0.938-7.424 2.134-14.848 8.022-19.456l103.424-80.896c1.106-0.896 1.32-2.816 0.636-4.010zM512.038 661.334c-117.632 0-213.334-95.702-213.334-213.334s95.702-213.334 213.334-213.334c117.632 0 213.334 95.702 213.334 213.334s-95.702 213.334-213.334 213.334zM512.038 277.334c-94.122 0-170.666 76.544-170.666 170.666s76.544 170.666 170.666 170.666c94.122 0 170.666-76.544 170.666-170.666s-76.544-170.666-170.666-170.666z" />
<glyph unicode="&#xe928;" glyph-name="shop-user1" d="M511.999 446.68c-269.853 0-489.401-219.551-489.401-489.401 0-11.746 9.533-21.279 21.279-21.279s21.279 9.533 21.279 21.279c0 246.403 200.442 446.845 446.845 446.845s446.845-200.442 446.845-446.845c0-11.746 9.533-21.279 21.279-21.279s21.279 9.533 21.279 21.279c-0.002 269.895-219.553 489.401-489.405 489.401zM511.999 960c-129.033 0-234.061-104.987-234.061-234.061s105.031-234.061 234.061-234.061 234.061 104.987 234.061 234.061-105.029 234.061-234.061 234.061zM511.999 534.434c-105.583 0-191.505 85.922-191.505 191.505s85.922 191.505 191.505 191.505c105.583 0 191.505-85.922 191.505-191.505s-85.922-191.505-191.505-191.505z" />
<glyph unicode="&#xe929;" glyph-name="shopping-bag" d="M835.8 751.2h-131c-4.4 102-89.6 184.8-192.8 184.8s-188.4-82.6-193-184.8h-133l-60.2-791.2h772.4l-62.4 791.2zM512 894.4c80.2 0 147-64 151.4-143.2h-302.8c4.4 79.2 71.2 143.2 151.4 143.2zM225.4 709.6h93.4v-137h41.6v137h303.2v-137h41.6v137h95.6l54-708h-683.4l54 708z" />
<glyph unicode="&#xe92a;" glyph-name="shopping-cart" d="M337.079 207.374c-67.362 0-121.964-54.602-121.964-121.964 0-67.353 54.602-121.955 121.964-121.955 67.353 0 121.955 54.602 121.955 121.955-0.070 67.327-54.628 121.894-121.955 121.964zM337.079 8.293c-42.596 0-77.126 34.53-77.126 77.117 0 42.596 34.53 77.126 77.126 77.126 42.587 0 77.117-34.53 77.117-77.126 0-42.587-34.53-77.117-77.117-77.117zM1001.798 719.189h-791.612l-16.14 90.35c-9.948 55.618-53.542 99.125-109.178 108.959l-58.517 10.307c-12.199 2.172-23.838-5.964-26.009-18.154-2.163-12.199 5.964-23.838 18.163-26.009l58.736-10.307c37.061-6.568 66.074-35.581 72.642-72.642l79.359-447.702c9.37-53.569 55.916-92.644 110.299-92.592h470.795c49.462-0.149 93.143 32.227 107.391 79.587l105.369 349.287c1.953 6.813 0.718 14.152-3.363 19.949-4.265 5.613-10.894 8.924-17.935 8.968zM874.904 354.217c-8.46-28.444-34.67-47.903-64.34-47.754h-470.795c-32.656-0.088-60.61 23.408-66.136 55.6l-55.373 312.515h753.492zM807.875 207.374c-67.362 0-121.964-54.602-121.964-121.964 0-67.353 54.602-121.955 121.964-121.955 67.353 0 121.955 54.602 121.955 121.955-0.070 67.327-54.628 121.894-121.955 121.964zM807.875 8.293c-42.596 0-77.126 34.53-77.126 77.117 0 42.596 34.53 77.126 77.126 77.126 42.587 0 77.117-34.53 77.117-77.126 0-42.587-34.53-77.117-77.117-77.117z" />
<glyph unicode="&#xe92b;" glyph-name="shop-add" d="M981.332 490.668h-426.665v426.665c0 23.565-19.102 42.668-42.668 42.668s-42.668-19.102-42.668-42.668v-426.668h-426.665c-23.565 0.003-42.668-19.1-42.668-42.665s19.102-42.668 42.668-42.668h426.668v-426.668c0-23.565 19.102-42.668 42.668-42.668s42.668 19.103 42.668 42.668v426.668h426.668c23.565 0 42.668 19.102 42.668 42.668s-19.108 42.667-42.673 42.667z" />
<glyph unicode="&#xe92c;" glyph-name="shop-cancel" d="M572.035 447.733l438.947 438.947c16.941 16.362 17.411 43.358 1.049 60.3s-43.358 17.411-60.3 1.049c-0.355-0.342-0.705-0.692-1.049-1.049l-438.949-438.947-438.947 438.949c-16.941 16.362-43.938 15.892-60.3-1.049-15.962-16.527-15.962-42.726 0-59.253l438.947-438.947-438.947-438.947c-16.649-16.652-16.649-43.648 0-60.3 16.652-16.647 43.648-16.647 60.3 0l438.947 438.947 438.947-438.947c16.941-16.362 43.938-15.892 60.3 1.049 15.959 16.527 15.959 42.726 0 59.25l-438.944 438.947z" />
<glyph unicode="&#xe92d;" glyph-name="shop-delete" d="M653.245 589.003c-13.246 0-23.981-10.735-23.981-23.981v-453.245c0-13.236 10.735-23.981 23.981-23.981s23.981 10.745 23.981 23.981v453.245c0 13.246-10.735 23.981-23.981 23.981zM370.267 589.003c-13.246 0-23.981-10.735-23.981-23.981v-453.245c0-13.236 10.735-23.981 23.981-23.981s23.981 10.745 23.981 23.981v453.245c0 13.246-10.735 23.981-23.981 23.981zM164.029 655.148v-590.846c0-34.923 12.806-67.719 35.176-91.25 22.267-23.597 53.255-36.993 85.686-37.049h453.732c32.44 0.056 63.428 13.452 85.686 37.049 22.37 23.532 35.176 56.328 35.176 91.25v590.846c44.468 11.803 73.283 54.763 67.335 100.393-5.958 45.62-44.824 79.747-90.838 79.756h-122.782v29.976c0.141 25.208-9.827 49.414-27.672 67.222-17.845 17.799-42.089 27.71-67.297 27.503h-212.945c-25.208 0.206-49.452-9.705-67.297-27.503-17.845-17.808-27.813-42.014-27.672-67.222v-29.976h-122.782c-46.014-0.009-84.88-34.136-90.838-79.756-5.948-45.63 22.866-88.59 67.335-100.393zM738.622-16.034h-453.732c-41.002 0-72.899 35.222-72.899 80.337v588.738h599.53v-588.738c0-45.115-31.897-80.337-72.899-80.337zM358.277 865.274c-0.159 12.487 4.749 24.506 13.611 33.321 8.852 8.815 20.899 13.658 33.396 13.443h212.945c12.496 0.215 24.543-4.628 33.396-13.443 8.862-8.806 13.77-20.834 13.611-33.321v-29.976h-306.959zM187.533 787.335h648.448c23.841 0 43.166-19.325 43.166-43.166s-19.325-43.166-43.166-43.166h-648.448c-23.841 0-43.166 19.325-43.166 43.166s19.325 43.166 43.166 43.166zM511.756 589.003c-13.246 0-23.981-10.735-23.981-23.981v-453.245c0-13.236 10.735-23.981 23.981-23.981s23.981 10.745 23.981 23.981v453.245c0 13.246-10.735 23.981-23.981 23.981z" />
<glyph unicode="&#xe92e;" glyph-name="shop-email1" d="M1014.063 936.961c-1.75 2.438-3.68 4.68-5.75 6.781-0.094 0.102-0.172 0.211-0.273 0.305-0.086 0.086-0.188 0.164-0.273 0.25-11.586 11.469-27.703 17.703-46.359 17.703-10.586 0-21.953-2-33.774-5.945l-870.213-290.063c-46.039-15.352-54.43-42.149-55.328-56.75-0.906-14.609 4.117-42.234 47.899-63.141l218.516-104.36-97.789-241.477c-0.242-0.586-0.461-1.18-0.656-1.773-10.867-32.602-6.492-61.914 12.016-80.414 11.82-11.82 28.047-17.875 46.727-17.875 10.563 0 21.906 1.938 33.68 5.859 0.602 0.203 1.188 0.414 1.773 0.656l241.485 97.789 104.352-218.508c19.945-41.758 46.234-48 60.133-48 12.414 0 43.086 5.406 59.758 55.43l290.071 870.213c9.555 28.664 7.43 54.703-5.992 73.32zM66.976 605.218c2.375 1.203 5.484 2.531 9.422 3.844l831.353 277.126-469.024-469.032c-17.109 14.391-35 26.5-51.969 34.602l-310.915 148.492c-3.742 1.789-6.656 3.484-8.867 4.969zM242.687 162.709c-10.352-3.32-16.219-2.75-18.094-2.117-0.633 1.883-1.203 7.742 2.117 18.094l96.039 237.149 38.149-18.227c36.313-17.336 83.367-64.399 100.711-100.703l18.227-38.156zM673.063 12.397c-1.313-3.945-2.641-7.047-3.844-9.422-1.492 2.211-3.195 5.125-4.984 8.883l-148.485 310.907c-8.102 16.969-20.211 34.852-34.602 51.969l469.040 469.032z" />
<glyph unicode="&#xe92f;" glyph-name="shop-envelope" d="M927.999 832.001h-831.999c-52.938 0-96.001-43.063-96.001-96.001v-576c0-52.938 43.063-96.001 96.001-96.001h831.999c52.938 0 96.001 43.063 96.001 96.001v576c0 52.938-43.063 96.001-96.001 96.001zM927.999 768.001c4.348 0 8.484-0.902 12.265-2.477l-428.264-371.18-428.267 371.18c3.781 1.573 7.917 2.477 12.265 2.477zM927.999 128.001h-831.999c-17.656 0-32.001 14.343-32.001 32.001v537.905l427.031-370.094c6.032-5.218 13.501-7.813 20.969-7.813s14.937 2.593 20.969 7.813l427.031 370.094v-537.907c-0.002-17.656-14.345-31.999-32.001-31.999z" />
<glyph unicode="&#xe93a;" glyph-name="cart" d="M384 32c0-53.019-42.981-96-96-96s-96 42.981-96 96c0 53.019 42.981 96 96 96s96-42.981 96-96zM1024 32c0-53.019-42.981-96-96-96s-96 42.981-96 96c0 53.019 42.981 96 96 96s96-42.981 96-96zM1024 448v384h-768c0 35.346-28.654 64-64 64h-192v-64h128l48.074-412.054c-29.294-23.458-48.074-59.5-48.074-99.946 0-70.696 57.308-128 128-128h768v64h-768c-35.346 0-64 28.654-64 64 0 0.218 0.014 0.436 0.016 0.656l831.984 127.344z" />
<glyph unicode="&#xe971;" glyph-name="user" d="M576 253.388v52.78c70.498 39.728 128 138.772 128 237.832 0 159.058 0 288-192 288s-192-128.942-192-288c0-99.060 57.502-198.104 128-237.832v-52.78c-217.102-17.748-384-124.42-384-253.388h896c0 128.968-166.898 235.64-384 253.388z" />
<glyph unicode="&#xe9da;" glyph-name="heart" d="M755.188 896c-107.63 0-200.258-87.554-243.164-179-42.938 91.444-135.578 179-243.216 179-148.382 0-268.808-120.44-268.808-268.832 0-301.846 304.5-380.994 512.022-679.418 196.154 296.576 511.978 387.206 511.978 679.418 0 148.392-120.43 268.832-268.812 268.832z" />
<glyph unicode="" glyph-name="heart" d="M755.188 896c-107.63 0-200.258-87.554-243.164-179-42.938 91.444-135.578 179-243.216 179-148.382 0-268.808-120.44-268.808-268.832 0-301.846 304.5-380.994 512.022-679.418 196.154 296.576 511.978 387.206 511.978 679.418 0 148.392-120.43 268.832-268.812 268.832z" />
<glyph unicode="user" glyph-name="user" d="M576 253.388v52.78c70.498 39.728 128 138.772 128 237.832 0 159.058 0 288-192 288s-192-128.942-192-288c0-99.060 57.502-198.104 128-237.832v-52.78c-217.102-17.748-384-124.42-384-253.388h896c0 128.968-166.898 235.64-384 253.388z" />
<glyph unicode="purchase" glyph-name="cart" d="M384 32c0-53.019-42.981-96-96-96s-96 42.981-96 96c0 53.019 42.981 96 96 96s96-42.981 96-96zM1024 32c0-53.019-42.981-96-96-96s-96 42.981-96 96c0 53.019 42.981 96 96 96s96-42.981 96-96zM1024 448v384h-768c0 35.346-28.654 64-64 64h-192v-64h128l48.074-412.054c-29.294-23.458-48.074-59.5-48.074-99.946 0-70.696 57.308-128 128-128h768v64h-768c-35.346 0-64 28.654-64 64 0 0.218 0.014 0.436 0.016 0.656l831.984 127.344z" />
<glyph unicode="profile2" glyph-name="user" d="M576 253.388v52.78c70.498 39.728 128 138.772 128 237.832 0 159.058 0 288-192 288s-192-128.942-192-288c0-99.060 57.502-198.104 128-237.832v-52.78c-217.102-17.748-384-124.42-384-253.388h896c0 128.968-166.898 235.64-384 253.388z" />
<glyph unicode="like" glyph-name="heart" d="M755.188 896c-107.63 0-200.258-87.554-243.164-179-42.938 91.444-135.578 179-243.216 179-148.382 0-268.808-120.44-268.808-268.832 0-301.846 304.5-380.994 512.022-679.418 196.154 296.576 511.978 387.206 511.978 679.418 0 148.392-120.43 268.832-268.812 268.832z" />
<glyph unicode="heart" glyph-name="heart" d="M755.188 896c-107.63 0-200.258-87.554-243.164-179-42.938 91.444-135.578 179-243.216 179-148.382 0-268.808-120.44-268.808-268.832 0-301.846 304.5-380.994 512.022-679.418 196.154 296.576 511.978 387.206 511.978 679.418 0 148.392-120.43 268.832-268.812 268.832z" />
<glyph unicode="cart" glyph-name="cart" d="M384 32c0-53.019-42.981-96-96-96s-96 42.981-96 96c0 53.019 42.981 96 96 96s96-42.981 96-96zM1024 32c0-53.019-42.981-96-96-96s-96 42.981-96 96c0 53.019 42.981 96 96 96s96-42.981 96-96zM1024 448v384h-768c0 35.346-28.654 64-64 64h-192v-64h128l48.074-412.054c-29.294-23.458-48.074-59.5-48.074-99.946 0-70.696 57.308-128 128-128h768v64h-768c-35.346 0-64 28.654-64 64 0 0.218 0.014 0.436 0.016 0.656l831.984 127.344z" />
</font>
</defs>
</svg>
